Dodaj do ulubionych

konwersja avi-dvd burzy synchronizacje

IP: 195.66.116.* 25.03.10, 13:48
mam film w formacie avi i jest on dobrze zsynchronizowany (dzwiek-obraz) ale
nie mam odtwarzacza czytajacego xvidy a ze to bajka i nie chce aby dziecie
gmyralo w kompie to postanowilem go "przerobic" na plytke dvd. Niestety,
zarowno w przypadku uzycia devede jak i dvdflick w wynikowym filmie dzwiek
wyprzedza obraz - z poczatku znacznie bo o ok 11 sekund aby na koncu
zminimalizowac to do ok 0,5 sek.
Jak to poprawic? Prosze o rady zwiazane z softem freeware.
Win XP SP1.
Obserwuj wątek
    • bling.bling Re: konwersja avi-dvd burzy synchronizacje 25.03.10, 23:31
      sproboj najpierw konwertowac do mpeg2 (koniecznie taki format) przy naprzyklad TMPGEnc tmpgenc.pegasys-inc.com/en/download/tpfree.html ale konwersja do MPEG2 jest tylko trial przez 30 dni.
      Najpierw odegraj na kompie, jesli jest OK to mozesz sprobowac nagrac na zwykla plyte (niekoniecznie DVD jesli pojemnosc nie jest problemem i nie koniecznie w formacie DVD tzn jako specyfikacji video DVD) Jest szansa ze odtwarzacz DVD poradzi sobie z takim plikiem. Daj mu rozszerzenie .mpg jesli gra to jestesmy w domu. Alternatywnie moesz tez sprobowac rozszerzenia .ts
      Inna alternatywa to Nero (trial powinien pozwolic na konwersje)
      Jeszcze inna to Avi2DVD www.trustfm.net/divx/SoftwareAvi2Dvd.php
      • Gość: bezradny Re: konwersja avi-dvd burzy synchronizacje IP: 195.66.116.* 26.03.10, 07:49
        dzieki. Podaje wlasciwosci filmu avi wyswietlone przez mplayera.
        Chyba nic nie wskazuje ze moze sie rozjechac po konwersji wiec to chyba jednak
        slabosc sprzetowa...

        General
        Format : AVI
        Format/Info : Audio Video Interleave
        File size : 705 MiB
        Duration : 1h 31mn
        Overall bit rate : 1 083 Kbps
        Writing application : VirtualDubMod 1.5.1.1a (build 1155/release)
        Writing library : VirtualDubMod build 1155/release

        Video
        ID : 0
        Format : MPEG-4 Visual
        Codec ID : DIV3
        Codec ID/Hint : DivX 3 Low
        Duration : 1h 31mn
        Bit rate : 945 Kbps
        Width : 672 pixels
        Height : 272 pixels
        Display aspect ratio : 2.471
        Frame rate : 25.000 fps
        Resolution : 8 bits
        Bits/(Pixel*Frame) : 0.207
        Stream size : 615 MiB (87%)

        Audio
        ID : 1
        Format : MPEG Audio
        Codec ID : 55
        Codec ID/Hint : MP3
        Duration : 1h 31mn
        Bit rate : 128 Kbps
        Channel(s) : 2 channels
        Sampling rate : 48.0 KHz
        Stream size : 83.3 MiB (12%)
        Alignment : Split accross interleaves
        Interleave, duration : 40 ms (1.00 video frame)
        Interleave, preload duration : 500 ms
        • bling.bling Re: konwersja avi-dvd burzy synchronizacje 26.03.10, 11:42
          > dzieki. Podaje wlasciwosci filmu avi wyswietlone przez mplayera.
          > Chyba nic nie wskazuje ze moze sie rozjechac po konwersji wiec to chyba jednak
          > slabosc sprzetowa...

          Zadna slabosc sprzetowa. Przy problemie sprzetowym mialbyc jakawke. Po prostu program ktory rekoduje do mpeg2 nie radzi sobie z nieco juz archaicznym Divx 3. To sie zdaza, nawet dedykowane odtwarzacze sprzetowe czasami gubia synchronizacje. Nie sposob udzielic sensownej i jednoznacznej porady, za duzo rzeczy ktore moga pojsc zle.
          Sprobuj innym programem

Popularne wątki

Nie pamiętasz hasła

lub ?

 

Nie masz jeszcze konta? Zarejestruj się

Nakarm Pajacyka